Bit Torrent Scene a public file sharing platform Home Upload Categories Collections Blog About

Rise of The Zombies [2013] - DVDRip - 1CD - Xvid - MP3 - E-Sub - [Team Telly] - eXclusive - seTul34

DOWNLOAD TORRENT DOWNLOAD DOWNLOAD ANONYMOUS

Posted on August 15, 2013 in Movies » Misc , downloaded 12 times , verified torrent

Size: 719.3 MB , Seeds: 0 , Peers: 0 ( Updated March 7, 2016 - Refresh )

* Download via Magnet Link , * To download files you need a Bittorrent Client , * How to download torrents from Bit Torrent Scene?

* Watch video torrents instantly, directly from your browser STREAM IT! with Torrents-time

advertising ( remove )

External Info

Trailer | Wikipedia | Other Info

Internal Files

Rise of The Zombies [2013] - DVDRip - 1CD - Xvid - MP3 - E-Sub - [Team Telly] - eXclusive - seTul34
vlcsnap-2013-08-14-18h22m15s123.png   321.11 KB
vlcsnap-2013-08-14-18h26m17s235.png   318.51 KB
vlcsnap-2013-08-14-18h25m55s11.png   291.8 KB
vlcsnap-2013-08-14-18h22m26s230.png   279.53 KB
vlcsnap-2013-08-14-18h22m44s158.png   261.08 KB
vlcsnap-2013-08-14-18h26m01s74.png   259.17 KB
vlcsnap-2013-08-14-18h23m23s40.png   214.18 KB
vlcsnap-2013-08-14-18h21m49s112.png   160.11 KB
vlcsnap-2013-08-14-18h22m03s1.png   63.54 KB
[www.TellyTorrents.com] Rise of The Zombies [2013] - DVDRip - 1CD - Xvid - MP3 - E-Sub - [Team Telly] - eXclusive - seTul34.avi   708.35 MB
[www.TellyTorrents.com] SAMPLE - Rise of The Zombies [2013] - DVDRip - 1CD - Xvid - MP3 - E-Sub - [Team Telly] - eXclusive - seTul34.avi   7.91 MB
seTul34 Banner.png   168.21 KB
Torrent Posted On Extratorrent.com.txt   55 Byte
Torrent Downloaded From TellyTorrents.com.txt   53 Byte

Hash Code

950287c400ac5572b5ed5088bf953dd97719046f

Description



Ripping Credit : deep1007



SCREENSHOT





Rise of The Zombies *2013*

"DVDRip - 1Cd - Xvid - MP3 - E-Sub"

..:: Team Telly ::..

..:: eXclusive ~ seTul34 ::..




SCREENSHOT





~:Media Info:~



Code:
General
Complete name : Rise of The Zombies [2013] - seTul34.avi
Format : AVI
Format/Info : Audio Video Interleave
File size : 708 MiB
Duration : 1h 26mn
Overall bit rate : 1 143 Kbps

Video
ID : 0
Format : MPEG-4 Visual
Format profile : Simple@L3
Codec ID : XVID
Duration : 1h 26mn
Bit rate : 1 029 Kbps
Width : 640 pixels
Height : 272 pixels
Display aspect ratio : 2.35:1
Frame rate : 29.970 fps
Original frame rate : 29.000 fps
Stream size : 638 MiB (90%)

Audio
ID : 1
Format : MPEG Audio
Codec ID : 55
Codec ID/Hint : MP3
Duration : 1h 26mn
Bit rate mode : Constant
Bit rate : 96.0 Kbps
Channel(s) : 2 channels
Sampling rate : 44.1 KHz
`1Stream size : 59.5 MiB (8%)





Quality Releaser ~ seTul34 wrote:
Problem-* Screenshots Wont Be Clear As It Is When It's Downloaded!

Reason-* Screenshots Have Been Taken From Windows Server!

Solution-* Please Check The Sample Link Provided Below!





~:ScreenShot:~



SCREENSHOT

SCREENSHOT

SCREENSHOT

SCREENSHOT

SCREENSHOT

SCREENSHOT

SCREENSHOT

SCREENSHOT

SCREENSHOT







~: SAMPLE :~





Don't Forget To Say "Thanks"! And "Comment"! If You Like My Post!

If You Don't Reply, This Post Will "Die"!

Check Sample Before "Commenting"!





~: Super Seeding :~





Click Here To Add Review







SCREENSHOT



Torrent location

http://extratorrent.com/torrent/3178988/Rise+of+The+Zombies+%5B2013%5D+-+DVDRip+-+1CD+-++Xvid+-+MP3+-+E-Sub+-+%5BTeam+Telly%5D+-+eXclusive+-+seTul34.html

Scrape History ( seeds + peers )

Trackers

Refresh Leechers : Updated March 7, 2016

1. http://www.tellytorrents.com:2710/00000029fe7382d89d15c09689b6983c/announce

2. udp://www.h33t.com:3310/announce

3. http://121.14.98.151:9090/announce

4. http://newhorizons.twentyforty.me:2710/announce

5. udp://tracker.istole.it:80/announce

6. udp://ipv4.tracker.harry.lu:80/announce

7. http://94.228.192.98/announce

8. udp://9.rarbg.com:2710/announce

9. udp://11.rarbg.me:80/announce

10. udp://10.rarbg.com/announce

11. udp://tracker.publicbt.com:80/announce

12. udp://tracker.openbittorrent.com:80/announce

13. udp://fr33dom.h33t.com:3310/announce

14. udp://tracker.publichd.eu/announce

15. udp://fr33domtracker.h33t.com:3310/announce

Comments

You must log in to add a comment.

Embed Code

Sharing Widget

Related torrents

FILENAME SIZE SEEDS PEERS ADDED UPD
[i] Rise Of The Zombies 2012 FRENCH DVDRip XviD-ARTEFAC 700.5 MB 20 2 2 years 4 months
[i] Rise Of The Zombies 2012 BDRip XviD-WiDE 701.07 MB 2 1 1 year 1 month
[i] Black Ops 2 Revolution Map Pack-Die Rise Zombies 1.89 GB 1 0 3 years 2 months
[i] Rise Of The Zombies 2012 1080p BluRay x264-BRMP 7.95 GB 1 1 1 year 2 months
[i] Rise.of.the.Zombies.HDTV.XviD-AFG 759.57 MB 0 3 3 years 2 months
[i] Rise of the Zombies [SYFY Original Movie] [2012/TVRIP/XViD] 676.07 MB 0 3 3 years 2 months
[i] Rise.of.the.Zombies.480p.HDTV.x264-mSD 523.07 MB 0 0 3 years 2 months
[i] Rise of the Zombies SYFY Original Movie 2012/TVRIP/XViD 676.07 MB 0 0 3 years 2 months
[i] Rise.of.the.Zombies.2012.HDRip.XVID.AC3.HQ.Hive-CM8 1.39 GB 0 3 3 years 2 months
[i] Rise.of.the.Zombies.2012.HDRip.XVID.AC3.HQ.Hive-CM8 1.39 GB 0 0 3 years 2 months

Top Movies ( auto generated report )

FILENAME SIZE SEEDS PEERS ADDED UPD
[i] Zoolander.2.2016.HDRip.XViD-ETRG
Movies - Comedy , Quality: Audio 8/10 - Video 8/10
707.3 MB 11014 9502 2 days 1 day
[i] How to Be Single 2016 FRENCH HDRip XviD-EXTREME avi 694.57 MB 7484 2978 2 days 1 day
[i] Batman v Superman Dawn of Justice 2016 VOSTFR DVDSCR XviD
Movies - Action , Quality: Audio 6/10 - Video 6/10
1.4 GB 6638 2556 1 day 21 hours
[i] How.to.Be.Single.2016.HDRip.XViD-ETRG
Movies - Comedy , Quality: Audio 9/10 - Video 9/10
713.3 MB 6522 8099 2 days 1 day
[i] The Huntsman Winters War 2016 HD-TS x264 AC3 Exclusive-CPG
Movies - Action , Quality: Audio 7/10 - Video 7/10
1.7 GB 6456 3361 3 days 1 day
[i] Age of Extinction 2015 FRENCH HDRip XviD-EXTREME 696.07 MB 6177 661 2 days 2 days
[i] 10.Cloverfield.Lane.2016.HDRip.XviD.AC3-EVO
Movies - Sci-Fi , Quality: Audio 9/10 - Video 8/10
1.38 GB 6127 3085 1 day 8 hours
[i] Captain America Civil War 2016 READNFO CAM XviD ACAB
Movies - Action , Quality: Audio 6/10 - Video 6/10
2.08 GB 5717 4326 3 days 10 hours
[i] Chongqing Hot Pot 2016 HD1080P X264 AAC Mandarin CHS-ENG Mp4Ba 2.16 GB 4912 4577 21 hours 19 hours
[i] 10 Cloverfield Lane 2016 1080p WEBRip x264 AAC2 0-STUTTERSHIT 4.45 GB 4782 7477 22 hours 20 hours