Bit Torrent Scene a public file sharing platform Home Upload Categories Collections Blog About

{NDS Movie} Richie Rich.DVDrip-Cradle

DOWNLOAD TORRENT DOWNLOAD DOWNLOAD ANONYMOUS

Posted on April 1, 2011 in Games » Nintendo DS , downloaded 743 times , verified torrent

Size: 281.65 MB , Seeds: 0 , Peers: 0 ( Updated December 18, 2015 - Refresh )

* Download via Magnet Link , * To download files you need a Bittorrent Client , * How to download torrents from Bit Torrent Scene?

advertising ( remove )

External Info

Trailer | Wikipedia | Other Info

Internal Files

{NDS Movie} Richie Rich.DVDrip-Cradle
Richie Rich.dvdrip.dpg   281.09 MB
cradle.nfo   4.15 KB
1337x.org   48 Byte

Hash Code

2b597b00fbe55469ffc723230498215b77451684

Description








-------------------------------

Complete name : {NDS Movie} Richie Rich.DVDrip-Cradle

Format : DPG

Format/Info : Nintendo DS

File size : 281 MiB

Duration : 1h 34mn

Overall bit rate : 416 Kbps



Video

Format : MPEG Video

Format version : Version 1

Format settings, BVOP : No

Format settings, Matrix : Default

Duration : 1s 667ms

Bit rate mode : Variable

Bit rate : 256 Kbps

Width : 256 pixels

Height : 192 pixels

Display aspect ratio : 4:3

Frame rate : 15.000 fps

Original frame rate : 23.976 fps

Color space : YUV

Bit depth : 8 bits

Scan type : Progressive

Compression mode : Lossy

Bits/(Pixel*Frame) : 0.347

Stream size : 173 MiB (62%)



Audio

Format : MPEG Audio

Format version : Version 1

Format profile : Layer 2

Duration : 1h 34mn

Bit rate mode : Constant

Bit rate : 160 Kbps

Channel(s) : 2 channels

Sampling rate : 32.0 KHz

Compression mode : Lossy

Stream size : 108 MiB (38%)

--------------------------------------------------------------------------------











NOTES:

Release Date··[ 26 May 1995 (UK)

IMDB Rating···[ 4.7/10

Genre·········[ Comedy | Family

LINK .........[ http://www.imdb.com/title/tt0110989/



Director:Donald Petrie

Writers:Neil Tolkin (story), Tom S. Parker (screenplay),

Stars:Macaulay Culkin, Edward Herrmann and John Larroquette

Language: English



The richest kid in the world, Richie Rich, has everything he wants, except companionship.

While representing his father at a factory opening



GREETS:

IMAGiNE,Noir,FLAWL3SS,ViSiON,FUSiON,Rx,SecretMyth,BirdFlu,ELEKTRI4KA,SERENiTY,and Autotron

And to all the other p2p grps past and present





THE MORE SEEDS MEANS MORE DS MOVIES RELEASES ! ! ! ! !



all my files are cleaned with




Scrape History ( seeds + peers )

Trackers

Refresh Leechers : Updated December 18, 2015

1. http://nemesis.1337x.org/announce

Comments

You must log in to add a comment.

Embed Code

Sharing Widget

Top Games ( auto generated report )

FILENAME SIZE SEEDS PEERS ADDED UPD
[i] XCOM 2_RePack by SEYTER 17.33 GB 1927 5975 1 day 13 hours
[i] XCOM 2: Digital Deluxe Edition- SEYTER 17.33 GB 1703 2520 22 hours 20 hours
[i] American.Truck.Simulator-CODEX 1.07 GB 1477 535 3 days 2 days
[i] XCOM.2.Crack.Only-sam2k8 39.07 MB 1127 65 22 hours 20 hours
[i] XCOM.2.Steam.Preload-3DM 24.59 GB 637 2210 1 day 22 hours
[i] XCOM.2.Resistance.Warrior.Pack.DLC 430.57 MB 602 48 22 hours 20 hours
[i] NARUTO.SHIPPUDEN.Ultimate.Ninja.STORM.4-CODEX 33.15 GB 547 8957 1 day 13 hours
[i] Tropico.5.Complete.Collection-TiNYiSO 3.22 GB 492 217 3 days 2 days
[i] D4: Dark Dreams Don't Die [R.G. Mechanics] 3.28 GB 305 74 2 days 1 day
[i] Grey Goo: Definitive Edition- XATAB 10.49 GB 276 140 22 hours 19 hours