{NDS Movie} Richie Rich.DVDrip-Cradle

DOWNLOAD TORRENT DOWNLOAD DOWNLOAD ANONYMOUS

Posted on April 1, 2011 in Games » Nintendo DS , verified torrent

Size: 281.65 MB , Seeds: 0 , Peers: 0 ( Updated April 8, 2017 - Refresh )

Could not find any peer statistics from any torrent tracker.
This does not mean the torrent is dead.

* Download via Magnet Link , * To download files you need a Bittorrent Client , * How to download torrents from Bit Torrent Scene?

Scrape History ( seeds + peers )

Internal Files

{NDS Movie} Richie Rich.DVDrip-Cradle
Richie Rich.dvdrip.dpg   281.09 MB
cradle.nfo   4.15 KB
1337x.org   48 Byte

Hash Code

2b597b00fbe55469ffc723230498215b77451684

Description








-------------------------------

Complete name : {NDS Movie} Richie Rich.DVDrip-Cradle

Format : DPG

Format/Info : Nintendo DS

File size : 281 MiB

Duration : 1h 34mn

Overall bit rate : 416 Kbps



Video

Format : MPEG Video

Format version : Version 1

Format settings, BVOP : No

Format settings, Matrix : Default

Duration : 1s 667ms

Bit rate mode : Variable

Bit rate : 256 Kbps

Width : 256 pixels

Height : 192 pixels

Display aspect ratio : 4:3

Frame rate : 15.000 fps

Original frame rate : 23.976 fps

Color space : YUV

Bit depth : 8 bits

Scan type : Progressive

Compression mode : Lossy

Bits/(Pixel*Frame) : 0.347

Stream size : 173 MiB (62%)



Audio

Format : MPEG Audio

Format version : Version 1

Format profile : Layer 2

Duration : 1h 34mn

Bit rate mode : Constant

Bit rate : 160 Kbps

Channel(s) : 2 channels

Sampling rate : 32.0 KHz

Compression mode : Lossy

Stream size : 108 MiB (38%)

--------------------------------------------------------------------------------











NOTES:

Release Date··[ 26 May 1995 (UK)

IMDB Rating···[ 4.7/10

Genre·········[ Comedy | Family

LINK .........[ http://www.imdb.com/title/tt0110989/



Director:Donald Petrie

Writers:Neil Tolkin (story), Tom S. Parker (screenplay),

Stars:Macaulay Culkin, Edward Herrmann and John Larroquette

Language: English



The richest kid in the world, Richie Rich, has everything he wants, except companionship.

While representing his father at a factory opening



GREETS:

IMAGiNE,Noir,FLAWL3SS,ViSiON,FUSiON,Rx,SecretMyth,BirdFlu,ELEKTRI4KA,SERENiTY,and Autotron

And to all the other p2p grps past and present





THE MORE SEEDS MEANS MORE DS MOVIES RELEASES ! ! ! ! !



all my files are cleaned with




Trackers

Refresh Leechers : Updated April 8, 2017

1. http://nemesis.1337x.org/announce

Comments

You must log in to add a comment.

Embed Code

Sharing Widget

Top Games ( auto generated report )

FILENAME SIZE SEEDS PEERS ADDED UPD
[i] DISHONORED.DEATH.OF.THE.OUTSIDER-STEAMPUNKS 28.81 GB 656 2511 2 days 1 day
[i] Pro.Evolution.Soccer.2018-CPY [rarbg] 24.6 GB 92 1089 3 days 2 days
[i] Minecraft.Story.Mode.Season.Two.Episode.3-RELOADED [rarbg] 3.95 GB 38 35 5 days 4 days
[i] The.LEGO.NINJAGO.Movie.Video.Game-CODEX [rarbg] 16.81 GB 34 78 3 days 2 days
[i] Dishonored Death of the Outsider- 18.64 GB 11 16 2 days 1 day
[i] Pro.Evolution.Soccer.2017.v.1.0.1.0.0.CPY- 3.53 GB 4 11 4 days 3 days
[i] 007.LegendsUPD.1+DLC- 5.72 GB 2 3 5 days 4 days
[i] Project.CARS.2.Deluxe.Edition.MULTi+DLC- 27.86 GB 2 32 3 days 2 days
[i] WRC 7 FIA World Rally Championship MULTi- 12.68 GB 3 8 1 day 4 hours