Bit Torrent Scene a public file sharing platform Home Upload Categories Collections Blog About

Massage Girl 18 - Aletta Ocean (XXX)(iPod,PSP,Zune)

DOWNLOAD TORRENT DOWNLOAD DOWNLOAD ANONYMOUS

Posted on February 8, 2011 in Misc » Others , downloaded 170 times

Size: 71.91 MB , Seeds: 0 , Peers: 0 ( Updated December 12, 2015 - Refresh )

* Download via Magnet Link , * To download files you need a Bittorrent Client , * How to download torrents from Bit Torrent Scene?

advertising ( remove )

External Info

Trailer | Wikipedia | Other Info

Internal Files

Massage Girl 18 - Aletta Ocean
Massage Girl 18 - Aletta Ocean.jpg   251.8 KB
Massage Girl 18 - Aletta Ocean.m4v   71.53 MB

Hash Code

c1218f916c5676da84bae25c7c219ebcf40f4908

Description



Screenshot

http://c043a917.picbucks.com

Video
ID : 1
Format : AVC
Format/Info : Advanced Video Codec
Format profile : Baseline@L2.1
Format settings, CABAC : No
Format settings, ReFrames : 2 frames
Codec ID : avc1
Codec ID/Info : Advanced Video Coding
Duration : 21mn 23s
Bit rate mode : Variable
Bit rate : 400 Kbps
Width : 480 pixels
Height : 272 pixels
Display aspect ratio : 16:9
Frame rate mode : Variable
Frame rate : 23.976 fps
Minimum frame rate : 23.974 fps
Maximum frame rate : 23.981 fps
Color space : YUV
Chroma subsampling : 4:2:0
Bit depth : 8 bits
Scan type : Progressive
Bits/(Pixel*Frame) : 0.128
Stream size : 61.2 MiB (86%)
Writing library : x264 core 112

Audio
ID : 2
Format : AAC
Format/Info : Advanced Audio Codec
Format profile : LC
Codec ID : 40
Duration : 21mn 23s
Bit rate mode : Variable
Bit rate : 64.0 Kbps
Maximum bit rate : 74.4 Kbps
Channel(s) : 2 channels
Channel positions : Front: L R
Sampling rate : 48.0 KHz
Compression mode : Lossy
Stream size : 9.79 MiB (14%)
Language : English

Screenshot

http://c043a917.picbucks.com

More Torrents...

http://thepiratebay.org/user/punter21/

Scrape History ( seeds + peers )

Trackers

Refresh Leechers : Updated December 12, 2015

1. http://tracker.thepiratebay.org/announce

2. udp://tracker.thepiratebay.org:80/announce

3. udp://tracker.openbittorrent.com:80/announce

4. udp://tracker.publicbt.com:80/announce

5. http://tracker.publicbt.com/announce

6. http://exodus.1337x.org/announce

Comments

You must log in to add a comment.

Embed Code

Sharing Widget

Top Misc ( auto generated report )

FILENAME SIZE SEEDS PEERS ADDED UPD
[i] Howard Stern Show FEB 01 2016 Mon 202.07 MB 223 52 4 days 3 days
[i] Howard Stern Show FEB 02 2016 Tue 202.57 MB 209 32 3 days 2 days
[i] Learn And Memorize Any Language,Learn Language Fast And Easy 489.57 MB 99 32 3 days 2 days
[i] UPSKIRT Panty Visible Wardrobe Malfunction Pictures Of Hot And Sexy Indian Actress { 60 Pictures } 4.84 MB 98 14 2 days 2 days
[i] The Complete Java Developer Course (2016) 4.76 GB 94 258 3 days 2 days
[i] Excellence With Excel 916.07 MB 91 53 3 days 2 days
[i] INDIAN CINE HEROINES HOT SEXY CLEAVAGE,NAVEL,LEG AND THIGH SHOW PICTURES { 105 PICTURES} 43.38 MB 82 28 4 days 3 days
[i] BING Wallpapers (January 2016) 1920x1080 57.37 MB 70 7 4 days 3 days
[i] Pakistani Actress Beautiful Wallpapers 9.28 MB 69 18 2 days 1 day
[i] PowerPoint Pro 742.57 MB 69 72 4 days 3 days