Bit Torrent Scene a public file sharing platform Home Upload Categories Collections Blog About

Marry Him If You Dare E06 HDTV XVID LIMO

Watch video torrents instantly, directly from your browser STREAM IT! with Torrents-time

DOWNLOAD TORRENT DOWNLOAD DOWNLOAD ANONYMOUS

Posted on October 30, 2013 in Series » Misc , downloaded 3 times , verified torrent

Size: 674.82 MB , Seeds: 0 , Peers: 0 ( Updated November 8, 2015 - Refresh )

* Download via Magnet Link , * To download files you need a Bittorrent Client , * How to download torrents from Bit Torrent Scene?

advertising ( remove )

External Info

Trailer | Wikipedia | Other Info

Internal Files

Marry.Him.If.You.Dare.E06.131029.HDTV.XviD-LIMO
Marry.Him.If.You.Dare.E06.131029.HDTV.XviD-LIMO.avi   674.49 MB
Marry.Him.If.You.Dare.E06.131029.HDTV.XviD-LIMO.srt   62.8 KB
ViSiT@@ AreaFiles.org.txt   404 Byte

Hash Code

f7a7aed6a5f51426eee8d748b59479b83b6b3c5c

Description

SCREENSHOT



Details



Title: 미래의 선택 / Mi Rae-ui Suntaek

Also known as: Mi Rae's Choice / Future's Choice / The Choice of the Future / The Future Choice

Genre: Romance, comedy, time travel, fantasy

Episodes: TBA

Broadcast network: KBS2

Broadcast period: 2013-Oct-14 to 2013-Dec-??

Air time: Monday & Tuesday 22:00

Subtitles English



Synopsis

32 years old for woman is an age which may be little too late to start something new or little too early to give up something. The 'future-self' comes to ‘me’ today and gives advices about life and marriage. The future-self is trying to bring better life by helping her to meet a perfect spouse.--KBS World

This drama will tell the story about a 57 years old woman named Na Mi Rae (Choi Myung Gil) from 2038, a television broadcast writer, travels back in time to meet her 32-year-old self (Yoon Eun Hye) from 2013 with the goal of preventing her marriage to Kim Shin (Lee Dong Gun) and thus send her past self down a different path in life.



Main Cast

Yoon Eun Hye as Na Mi Rae (32)

Choi Myung Gil as Na Mi Rae's future self (57)

Lee Dong Gun as Kim Shin (35)

Jung Yong Hwa as Park Se Joo (28)

Han Chae Ah as Seo Yoo Kyung (28)

People in Broadcasting Station

Oh Jung Se as Na Joo Hyun (35)

Lee Mi Do as Bae Hyun Ah (30)

Ahn Se Ha as Lee Jae Soo (32)

Go Doo Shim as Lee Mi Ran (65)



SCREENSHOT





Video

ID : 0

Format : MPEG-4 Visual

Format profile : Advanced Simple@L5

Format settings, BVOP : No

Format settings, QPel : No

Format settings, GMC : No warppoints

Format settings, Matrix : Default (MPEG)

Codec ID : XVID

Codec ID/Hint : XviD

Duration : 1h 6mn

Bit rate : 1 391 Kbps

Width : 624 pixels

Height : 352 pixels

Display aspect ratio : 16:9

Frame rate : 29.970 fps

Color space : YUV

Chroma subsampling : 4:2:0

Bit depth : 8 bits

Scan type : Progressive

Compression mode : Lossy

Bits/(Pixel*Frame) : 0.211

Stream size : 660 MiB (87%)

Writing library : XviD 1.2.1 (UTC 2008-12-04)



Audio

ID : 1

Format : MPEG Audio

Format version : Version 1

Format profile : Layer 3

Mode : Joint stereo

Mode extension : MS Stereo

Codec ID : 55

Codec ID/Hint : MP3

Duration : 1h 6mn

Bit rate mode : Constant

Bit rate : 128 Kbps

Channel(s) : 2 channels

Sampling rate : 48.0 KHz

Compression mode : Lossy

Stream size : 60.8 MiB (8%)

Alignment : Aligned on interleaves

Writing library : LAME3.98.2

Language : un

Torrent location

http://extratorrent.cc/torrent/3276580/Marry+Him+If+You+Dare+E06+HDTV+XVID+LIMO.html

Scrape History ( seeds + peers )

Trackers

Refresh Leechers : Updated November 8, 2015

1. http://94.228.192.98/announce

2. http://bigfoot1942.sektori.org:6969/announce

3. http://announce.torrentsmd.com:8080/announce

4. http://tracker.nwps.ws:6969/announce

5. udp://11.rarbg.me:80/announce

6. udp://open.demonii.com:1337/announce

7. udp://tracker.istole.it:80

8. udp://tracker.istole.it:80/announce

9. udp://9.rarbg.com:2710/announce

Comments

You must log in to add a comment.

Embed Code

Sharing Widget

Related torrents

FILENAME SIZE SEEDS PEERS ADDED UPD
[i] Someone Marry Barry (2014) 720p BrRip x264 - YIFY 698.5 MB 91 9 11 months 5 months
[i] Someone Marry Barry (2014) 1080p BrRip x264 - YIFY 1.23 GB 43 8 11 months 5 months
[i] Marry Me 2014 S01E01 HDTV x264-LOL [eztv] 183.63 MB 22 1 1 year 3 months
[i] Review with Forrest MacNeil S01E08 Marry-Run-Party HDTV x264-BWB 195.82 MB 20 0 1 year 4 months
[i] MofosWorldWide - Marry Queen (The Queen is Back!) 354.32 MB 17 10 2 years 7 months
[i] Someone Marry Barry 2014 FRENCH DVDRip XviD-ALBOY 709.32 MB 16 1 9 months 4 months
[i] Marry Me 2014 S01E13 HDTV x264-LOL [eztv] 163.63 MB 13 0 1 year 6 months
[i] Marry Me 2014 S01E15 Date Me HDTV x264-FiHTV [eztv] 152.63 MB 13 0 9 months 4 months
[i] Marry Me 2014 S01E14 HDTV x264-LOL [eztv] 151.63 MB 12 1 12 months 6 months
[i] Marry Me 2014 S01E03 HDTV x264-LOL [eztv] 168.63 MB 11 2 1 year 3 months

Top Series ( auto generated report )

FILENAME SIZE SEEDS PEERS ADDED UPD
[i] The Flash 2014 S02E13 HDTV x264-LOL[ettv]
Series - Misc , Quality: Audio 9/10 - Video 9/10
246.5 MB 16010 2444 3 days 20 hours
[i] Arrow.S04E13.HDTV.x264-LOL[ettv]
Series - Misc , Quality: Audio 9/10 - Video 9/10
226.5 MB 15135 2470 2 days 20 hours
[i] The.Big.Bang.Theory.S09E15.HDTV.x264-LOL[ettv]
Series - Misc , Quality: Audio 9/10 - Video 9/10
172.5 MB 13014 2531 2 days 20 hours
[i] The 100 S03E04 HDTV x264-FUM[ettv]
Series - Misc , Quality: Audio 9/10 - Video 9/10
362.5 MB 11019 2959 20 hours 18 hours
[i] The Vampire Diaries S07E12 HDTV x264-LOL[ettv]
Series - Misc , Quality: Audio 9/10 - Video 9/10
208.5 MB 10292 2817 20 hours 17 hours
[i] How to Get Away with Murder S02E10 HDTV x264-LOL[ettv]
Series - Misc , Quality: Audio 9/10 - Video 9/10
246.5 MB 8763 2562 20 hours 17 hours
[i] The Originals S03E12 HDTV x264-LOL[ettv]
Series - Misc , Quality: Audio 9/10 - Video 9/10
192.5 MB 7800 2427 20 hours 18 hours
[i] Suits S05E13 HDTV x264-KILLERS[rartv]
Series - Misc , Quality: Audio 9/10 - Video 9/10
231.57 MB 7715 1012 2 days 20 hours
[i] Suits.S05E13.HDTV.x264-KILLERS[ettv]
Series - Misc , Quality: Audio 9/10 - Video 9/10
232.5 MB 7652 3261 2 days 2 days
[i] The Blacklist S03E14 HDTV x264-FUM[ettv]
Series - Misc , Quality: Audio 9/10 - Video 9/10
230.5 MB 7592 1513 20 hours 17 hours