Your IP Address is . Location is Your ISP and Government can track your torrent activity! Hide your IP with a VPN!

Marry Him If You Dare E06 HDTV XVID LIMO

DOWNLOAD TORRENT DOWNLOAD DOWNLOAD ANONYMOUS

Posted on October 30, 2013 in Series » Misc , verified torrent

Size: 674.82 MB , Seeds: 0 , Peers: 0 ( Updated July 2, 2017 - Refresh )

Could not find any peer statistics from any torrent tracker.
This does not mean the torrent is dead.

* Download via Magnet Link , * To download files you need a Bittorrent Client , * How to download torrents from Bit Torrent Scene?

Scrape History ( seeds + peers )

Internal Files

Marry.Him.If.You.Dare.E06.131029.HDTV.XviD-LIMO
Marry.Him.If.You.Dare.E06.131029.HDTV.XviD-LIMO.avi   674.49 MB
Marry.Him.If.You.Dare.E06.131029.HDTV.XviD-LIMO.srt   62.8 KB
ViSiT@@ AreaFiles.org.txt   404 Byte

Hash Code

f7a7aed6a5f51426eee8d748b59479b83b6b3c5c

Description

SCREENSHOT



Details



Title: 미래의 선택 / Mi Rae-ui Suntaek

Also known as: Mi Rae's Choice / Future's Choice / The Choice of the Future / The Future Choice

Genre: Romance, comedy, time travel, fantasy

Episodes: TBA

Broadcast network: KBS2

Broadcast period: 2013-Oct-14 to 2013-Dec-??

Air time: Monday & Tuesday 22:00

Subtitles English



Synopsis

32 years old for woman is an age which may be little too late to start something new or little too early to give up something. The 'future-self' comes to ‘me’ today and gives advices about life and marriage. The future-self is trying to bring better life by helping her to meet a perfect spouse.--KBS World

This drama will tell the story about a 57 years old woman named Na Mi Rae (Choi Myung Gil) from 2038, a television broadcast writer, travels back in time to meet her 32-year-old self (Yoon Eun Hye) from 2013 with the goal of preventing her marriage to Kim Shin (Lee Dong Gun) and thus send her past self down a different path in life.



Main Cast

Yoon Eun Hye as Na Mi Rae (32)

Choi Myung Gil as Na Mi Rae's future self (57)

Lee Dong Gun as Kim Shin (35)

Jung Yong Hwa as Park Se Joo (28)

Han Chae Ah as Seo Yoo Kyung (28)

People in Broadcasting Station

Oh Jung Se as Na Joo Hyun (35)

Lee Mi Do as Bae Hyun Ah (30)

Ahn Se Ha as Lee Jae Soo (32)

Go Doo Shim as Lee Mi Ran (65)



SCREENSHOT





Video

ID : 0

Format : MPEG-4 Visual

Format profile : Advanced Simple@L5

Format settings, BVOP : No

Format settings, QPel : No

Format settings, GMC : No warppoints

Format settings, Matrix : Default (MPEG)

Codec ID : XVID

Codec ID/Hint : XviD

Duration : 1h 6mn

Bit rate : 1 391 Kbps

Width : 624 pixels

Height : 352 pixels

Display aspect ratio : 16:9

Frame rate : 29.970 fps

Color space : YUV

Chroma subsampling : 4:2:0

Bit depth : 8 bits

Scan type : Progressive

Compression mode : Lossy

Bits/(Pixel*Frame) : 0.211

Stream size : 660 MiB (87%)

Writing library : XviD 1.2.1 (UTC 2008-12-04)



Audio

ID : 1

Format : MPEG Audio

Format version : Version 1

Format profile : Layer 3

Mode : Joint stereo

Mode extension : MS Stereo

Codec ID : 55

Codec ID/Hint : MP3

Duration : 1h 6mn

Bit rate mode : Constant

Bit rate : 128 Kbps

Channel(s) : 2 channels

Sampling rate : 48.0 KHz

Compression mode : Lossy

Stream size : 60.8 MiB (8%)

Alignment : Aligned on interleaves

Writing library : LAME3.98.2

Language : un

Trackers

Refresh Leechers : Updated July 2, 2017

1. http://94.228.192.98/announce

2. http://bigfoot1942.sektori.org:6969/announce

3. http://announce.torrentsmd.com:8080/announce

4. http://tracker.nwps.ws:6969/announce

5. udp://11.rarbg.me:80/announce

6. udp://open.demonii.com:1337/announce

7. udp://tracker.istole.it:80

8. udp://tracker.istole.it:80/announce

9. udp://9.rarbg.com:2710/announce

Comments

You must log in to add a comment.

Embed Code

Sharing Widget

Related torrents

FILENAME SIZE SEEDS PEERS ADDED UPD
[i] How to Marry a Millionaire (1953) [1080p] [YTS AG] 1.46 GB 24 6 10 months 5 months
[i] How to Marry a Millionaire (1953) [720p] [YTS AG] 706.61 MB 20 2 10 months 5 months
[i] Someone Marry Barry (2014) 720p BrRip x264 - YIFY 698.5 MB 11 1 2 years 6 months
[i] Someone Marry Barry (2014) 1080p BrRip x264 - YIFY 1.23 GB 7 1 2 years 6 months
[i] Meet to Marry - A Dating Revelation for the Marriage-Minded 844.8 KB 6 0 3 months 1 month
[i] Kama Sutra - Marry Queen.mp4 278.82 MB 5 0 3 years 7 months
[i] [MagmaFilm]Marry Queen - Natural Wonders Of The World 66 [.mp4]
posted by nsanyi23 in Porn - Movies
343.26 MB 5 1 1 year 5 months
[i] How.To.Marry.A.Millionaire.1953.720p.BluRay.x264-SiNNERS [Public 4.37 GB 4 0 5 years 9 months
[i] MofosWorldWide - Marry Queen (The Queen is Back!) 354.32 MB 4 0 4 years 8 months
[i] Marry Me 2014 S01E01 HDTV x264-LOL [eztv] 183.63 MB 4 0 3 years 3 months

Top Series ( auto generated report )

FILENAME SIZE SEEDS PEERS ADDED UPD
[i] The.Tick.2016.S01.Part.2.720p.AMZN.WEB-DL.DD+5.1.H.264-AJP69[ett 2.82 GB 815 389 1 day 15 hours
[i] Celebrity.Big.Brother.US.S01E11.HDTV.x264-F43[ettv] 558.97 MB 295 39 1 day 13 hours
[i] RuPauls.Drag.Race.All.Stars.S03E05.WEBRip.360p.x264-WOWRip 185.07 MB 270 25 1 day 22 hours
[i] Troy.Fall.Of.A.City.S01E02.HDTV.x264-MTB[ettv] 323.2 MB 226 102 16 hours 14 hours
[i] Project.Runway.All.Stars.S06E07.WEB.h264-CookieMonster 574.7 MB 204 24 1 day 21 hours
[i] Seven.Seconds.S01E06.720p.WEBRip.x264-SKGTV[ettv] 996 MB 163 71 2 days 1 day
[i] UFC on Fox 28 Prelims 720p WEB-DL H264 Fight-BB 3.43 GB 123 254 12 hours 10 hours
[i] Homicide.City.S01E01.A.Managers.Murder.720p.HDTV.x264-CRiMSON[N1C] 611.2 MB 123 27 1 day 17 hours
[i] 60.Days.In.S04E09.Nachos.Strippers.and.Whippit.WEB.h264-CAFFEiNE[ettv] 595.2 MB 114 23 1 day 19 hours
[i] Monster S01E01 FRENCH HDTV 450.62 MB 110 2 1 day 16 hours