Marry Him If You Dare E06 HDTV XVID LIMO

DOWNLOAD TORRENT DOWNLOAD DOWNLOAD ANONYMOUS

Posted on October 30, 2013 in Series » Misc , verified torrent

Size: 674.82 MB , Seeds: 0 , Peers: 0 ( Updated November 12, 2016 - Refresh )

Could not find any peer statistics from any torrent tracker.
This does not mean the torrent is dead.

* Download via Magnet Link , * To download files you need a Bittorrent Client , * How to download torrents from Bit Torrent Scene?

Loading...

Scrape History ( seeds + peers )

Internal Files

Marry.Him.If.You.Dare.E06.131029.HDTV.XviD-LIMO
Marry.Him.If.You.Dare.E06.131029.HDTV.XviD-LIMO.avi   674.49 MB
Marry.Him.If.You.Dare.E06.131029.HDTV.XviD-LIMO.srt   62.8 KB
ViSiT@@ AreaFiles.org.txt   404 Byte

Hash Code

f7a7aed6a5f51426eee8d748b59479b83b6b3c5c

Description

SCREENSHOT



Details



Title: 미래의 선택 / Mi Rae-ui Suntaek

Also known as: Mi Rae's Choice / Future's Choice / The Choice of the Future / The Future Choice

Genre: Romance, comedy, time travel, fantasy

Episodes: TBA

Broadcast network: KBS2

Broadcast period: 2013-Oct-14 to 2013-Dec-??

Air time: Monday & Tuesday 22:00

Subtitles English



Synopsis

32 years old for woman is an age which may be little too late to start something new or little too early to give up something. The 'future-self' comes to ‘me’ today and gives advices about life and marriage. The future-self is trying to bring better life by helping her to meet a perfect spouse.--KBS World

This drama will tell the story about a 57 years old woman named Na Mi Rae (Choi Myung Gil) from 2038, a television broadcast writer, travels back in time to meet her 32-year-old self (Yoon Eun Hye) from 2013 with the goal of preventing her marriage to Kim Shin (Lee Dong Gun) and thus send her past self down a different path in life.



Main Cast

Yoon Eun Hye as Na Mi Rae (32)

Choi Myung Gil as Na Mi Rae's future self (57)

Lee Dong Gun as Kim Shin (35)

Jung Yong Hwa as Park Se Joo (28)

Han Chae Ah as Seo Yoo Kyung (28)

People in Broadcasting Station

Oh Jung Se as Na Joo Hyun (35)

Lee Mi Do as Bae Hyun Ah (30)

Ahn Se Ha as Lee Jae Soo (32)

Go Doo Shim as Lee Mi Ran (65)



SCREENSHOT





Video

ID : 0

Format : MPEG-4 Visual

Format profile : Advanced Simple@L5

Format settings, BVOP : No

Format settings, QPel : No

Format settings, GMC : No warppoints

Format settings, Matrix : Default (MPEG)

Codec ID : XVID

Codec ID/Hint : XviD

Duration : 1h 6mn

Bit rate : 1 391 Kbps

Width : 624 pixels

Height : 352 pixels

Display aspect ratio : 16:9

Frame rate : 29.970 fps

Color space : YUV

Chroma subsampling : 4:2:0

Bit depth : 8 bits

Scan type : Progressive

Compression mode : Lossy

Bits/(Pixel*Frame) : 0.211

Stream size : 660 MiB (87%)

Writing library : XviD 1.2.1 (UTC 2008-12-04)



Audio

ID : 1

Format : MPEG Audio

Format version : Version 1

Format profile : Layer 3

Mode : Joint stereo

Mode extension : MS Stereo

Codec ID : 55

Codec ID/Hint : MP3

Duration : 1h 6mn

Bit rate mode : Constant

Bit rate : 128 Kbps

Channel(s) : 2 channels

Sampling rate : 48.0 KHz

Compression mode : Lossy

Stream size : 60.8 MiB (8%)

Alignment : Aligned on interleaves

Writing library : LAME3.98.2

Language : un

Torrent location

http://extratorrent.cc/torrent/3276580/Marry+Him+If+You+Dare+E06+HDTV+XVID+LIMO.html

Trackers

Refresh Leechers : Updated November 12, 2016

1. http://94.228.192.98/announce

2. http://bigfoot1942.sektori.org:6969/announce

3. http://announce.torrentsmd.com:8080/announce

4. http://tracker.nwps.ws:6969/announce

5. udp://11.rarbg.me:80/announce

6. udp://open.demonii.com:1337/announce

7. udp://tracker.istole.it:80

8. udp://tracker.istole.it:80/announce

9. udp://9.rarbg.com:2710/announce

Comments

You must log in to add a comment.

Embed Code

Sharing Widget

Related torrents

FILENAME SIZE SEEDS PEERS ADDED UPD
[i] How to Marry a Millionaire (1953) [1080p] [YTS AG] 1.46 GB 76 9 1 month 2 weeks
[i] How to Marry a Millionaire (1953) [720p] [YTS AG] 706.61 MB 58 12 1 month 2 weeks
[i] Someone Marry Barry (2014) 720p BrRip x264 - YIFY 698.5 MB 16 6 2 years 8 months
[i] [Legalporno] Henessy- Megan Vale & Marry - Black cock addiction scene #1815
posted by samwarez in Porn - Movies
1.11 GB 14 3 3 weeks 1 week
[i] [Woodman CastingX]Marry Queen - Casting and Hardcore in Budapest
posted by nsanyi23 in Porn - Movies
660.49 MB 13 1 1 year 9 months
[i] Someone Marry Barry (2014) 1080p BrRip x264 - YIFY 1.23 GB 10 4 2 years 8 months
[i] Creamy Holes 2 - Marry Queen.avi 246.07 MB 9 0 2 years 1 year
[i] MikesApartment.13.05.29.Marry.Dream.Dream.Stay.XXX.1080p.MP4-KTR 2.92 GB 8 1 3 years 11 months
[i] Marry Queen - Marry Queen Gets Her Blizzard HD 720p 979.32 MB 8 1 3 years 1 year
[i] How to Marry a Millionaire - Come sposare un milionario (1953).H264.Italian.Ac3.English.Ac3.5.1.sub.ita.eng.iCV-MIRCrew
posted by robbyrs3 in Movies - Comedy
1.12 GB 8 1 3 months 1 week

Top Series ( auto generated report )

FILENAME SIZE SEEDS PEERS ADDED UPD
[i] American.Gods.S01E04.WEBRip.X264-DEFLATE[ettv] 480.5 MB 6133 2074 2 days 1 day
[i] Arrow.S05E22.HDTV.x264-SVA[eztv].mkv 305.41 MB 4679 1019 5 days 4 days
[i] Prison.Break.S05E07.HDTV.x264-KILLERS[ettv] 225.9 MB 4590 299 6 days 12 hours
[i] Greys.Anatomy.S13E24.HDTV.x264-KILLERS[ettv] 298.5 MB 3841 550 4 days 3 days
[i] Greys.Anatomy.S13E24.HDTV.x264-KILLERS[eztv].mkv 297.54 MB 3492 845 4 days 3 days
[i] Lucifer.S02E17.HDTV.x264-KILLERS[eztv].mkv 324.29 MB 3428 596 1 day 14 hours
[i] The.Blacklist.S04E22.HDTV.x264-KILLERS[eztv].mkv 228.41 MB 3295 504 4 days 3 days
[i] The.Flash.2014.S03E22.WEB-DL.x264-FUM[ettv] 260.5 MB 3192 497 6 days 4 hours
[i] Blindspot.S02E22.HDTV.x264-SVA[eztv].mkv 319.16 MB 3172 666 5 days 4 days
[i] Silicon.Valley.S04E05.HDTV.x264-SVA[ettv] 140.68 MB 3053 455 1 day 12 hours