Bit Torrent Scene a public file sharing platform Home Upload Categories Collections Blog About

Desi Girl Homemade xXx Hindi Scandal With BF@Mastitorrents

DOWNLOAD TORRENT DOWNLOAD DOWNLOAD ANONYMOUS

Posted on June 22, 2010 in Misc » Others , downloaded 221 times

Size: 30.45 MB , Seeds: 0 , Peers: 0 ( Updated November 22, 2015 - Refresh )

* Download via Magnet Link , * To download files you need a Bittorrent Client , * How to download torrents from Bit Torrent Scene?

advertising ( remove )

External Info

Trailer | Wikipedia | Other Info

Internal Files

desigirll
desigirl.avi   30.16 MB
desigirl.avi_thumbs_[2010.06.22_07.45.23].jpg   276.96 KB

Hash Code

99ed12d24f21a7ab46b48dc6009972507c8212dd

Description


mastitorrents.com
http://mastitorrents.com/forums/index.php


General

Format : AVI
Format/Info : Audio Video Interleave
File size : 30.2 MiB
Duration : 7mn 7s
Overall bit rate : 591 Kbps
Writing application : Lavf52.13.0

Video
Format : S-Mpeg 4 v2
Codec ID : MP42
Codec ID/Info : Microsoft MPEG-4 V2
Duration : 7mn 7s
Bit rate : 482 Kbps
Width : 176 pixels
Height : 144 pixels
Display aspect ratio : 1.222
Frame rate : 29.970 fps
Resolution : 24 bits
Bits/(Pixel*Frame) : 0.635
Stream size : 24.6 MiB (81%)

Audio
ID : 1
Format : MPEG Audio
Format version : Version 1
Format profile : Layer 3
Format_Settings_Mode : Joint stereo / MS Stereo
Codec ID : 55
Codec ID/Hint : MP3
Duration : 7mn 7s
Bit rate mode : Constant
Bit rate : 96.0 Kbps
Channel(s) : 2 channels
Sampling rate : 44.1 KHz
Resolution : 16 bits
Stream size : 4.90 MiB (16%)
Alignment : Aligned on interleaves
Interleave, duration : 26 ms (0.78 video frame)

Scrape History ( seeds + peers )

Trackers

Refresh Leechers : Updated November 22, 2015

1. http://tracker.thepiratebay.org/announce

2. udp://tracker.thepiratebay.org:80/announce

3. http://www.mastitorrents.com:30303/000058c9a8c15b5bb64a07c807ba0aa5/announce

4. http://tracker.istole.it:80/announce

5. http://11.rarbg.com:80/announce

6. http://10.rarbg.com:80/announce

7. http://photodiode.mine.nu/announce

8. http://pow7.com:80/announce

9. udp://denis.stalker.h3q.com:6969/announce

10. http://denis.stalker.h3q.com:6969/announce

11. http://tracker.publicbt.com/announce

12. udp://tracker.publicbt.com:80/announce

13. udp://tracker.openbittorrent.com:80/announce

14. http://tracker.openbittorrent.com/announce

Comments

You must log in to add a comment.

Embed Code

Sharing Widget

Related torrents

FILENAME SIZE SEEDS PEERS ADDED UPD
[i] Labony Mobasher - Girl Form Bengal - Hot Erotic Fuck Sessions [Desi Amatuer Homemade] Pack [.jpg] [.mp4] [.avi] [.flv] 1.38 GB 7 3 3 months 2 weeks
[i] Cute Desi Bengali Girl Sex with Cousin Brother 34 minutes Homemade Video
posted by dipxxx in Porn - Movies
131.89 MB 6 1 1 year 3 months
[i] *NEW* Desi Skinny College Virgin Girl Cries in Pain while Inserting Dick - Homemade Scandal 15min =XXX-BaBa= 113.29 MB 4 2 1 year 1 month
[i] Indian Desi girl self homemade video with boyfriend.mp4 112.41 MB 4 0 9 months 3 months
[i] Desi Bengali Beautiful Girl fucked by Her Boyfriend 1st.time-30min.Homemade full Video 189.57 MB 3 0 1 year 1 month
[i] Indian Desi girl cock riding homemade video.mp4 167.57 MB 3 0 1 year 1 month
[i] Beautiful Indian Desi Girl Fucked In Bathroom & More Hot Recent Homemade Scandals-Runtime 27 Min 170.41 MB 2 1 2 years 1 month
[i] Very Old Classic Desi Homemade Scandal Of Cute Bangladeshi Girl With Clear Audio (33 Min) 261.65 MB 2 1 1 year 1 month
[i] Beautiful Desi Girl Homemade Sex tape-Captured by her BoyFriend -Very Hot 161.29 MB 2 1 1 year 3 months
[i] Indian Desi Red Saree Beautiful girl Homemade 20min. Hot Sex Video 148.66 MB 2 2 1 year 3 months

Top Misc ( auto generated report )

FILENAME SIZE SEEDS PEERS ADDED UPD
[i] Howard Stern Show MAY 23 2016 Mon (Best Of) 204.32 MB 108 17 3 days 2 days
[i] Howard Stern Show MAY 24 2016 Tue (Best Of) 186.82 MB 78 7 2 days 1 day
[i] 40 Big Milky Boobs Pictures Of Poonam Pandey Will Blow Your Mind 3.7 MB 75 16 2 days 1 day
[i] 60 Amazing National Geographic Photos [Mixed Res][Set 13] 23 MB 70 18 1 day 8 hours
[i] Python Course - Learn Python Programming, MongoDB, Django 1.37 GB 69 57 4 hours 2 hours
[i] Linux Kernel Fundamentals 422.57 MB 68 34 2 days 1 day
[i] Python Network Programming Build 5 Python Apps 1.25 GB 65 72 2 days 1 day
[i] Mastering Color Correction in Photoshop 915.07 MB 61 38 4 days 3 days
[i] 20 Awesome Nature Ultra HD 4K Wallpapers 3840x2160 Px [Set 54] 56.35 MB 58 18 2 days 1 day
[i] 60 Sexy Lingerie Girls Photos [Mixed Res][Set 80] 11.52 MB 57 15 1 day 10 hours