Bit Torrent Scene a public file sharing platform Home Upload Categories Collections Blog About

Agente 077 Missione Speciale Lady Chaplin (1966) [DivX - Italian Mp3] MIRCrew [TNT Village]

DOWNLOAD TORRENT DOWNLOAD DOWNLOAD ANONYMOUS

Posted by robbyrs •2360 on August 21, 2013 in Movies » Action , downloaded 31 times , verified torrent

Size: 990.94 MB , Seeds: 2 , Peers: 1 ( Updated March 7, 2016 - Refresh )

* Download via Magnet Link , * To download files you need a Bittorrent Client , * How to download torrents from Bit Torrent Scene?

* Watch video torrents instantly, directly from your browser STREAM IT! with Torrents-time

advertising ( remove )

External Info

Trailer | Wikipedia | Other Info

Internal Files

Agente 077 Missione Speciale Lady Chaplin (1966).avi
Agente 077 Missione Speciale Lady Chaplin (1966).avi   990.94 MB

Hash Code

92ec26af82b250c15a0450e5dc3b3a4ea01e9dc2

Description

Agente 077 Missione Speciale Lady Chaplin (1966) [DivX - Italian Mp3] MIRCrew [TNT Village]




SCREENSHOT

Agente 077 Missione Speciale Lady Chaplin (1966)

a breve anche gli altri 2

*************************************************



SCREENSHOT

SCREENSHOT

Paese: Italia
Anno: 1966
Genere: Spionaggio
durata 91'
Regia di Alberto De Martino

************************************************

SCREENSHOT

SCREENSHOT

Ken Clark, Daniela Bianchi, Jacques Bergerac, Helga Liné, Mabel Karr

SCREENSHOT

SCREENSHOT

L'agente speciale Malloy ha una nuova missione, scoprire i piani della "rivale" Arabella Chaplin, conosciuta nel mondo delle spie come "Lady Chaplin". La donna non sa di essere minacciata

da un complice, che peraltro fa di tutto per togliere di mezzo anche Malloy. Tra doppi giochi e intrighi da guerra fredda, i due agenti segreti ...........


Missione speciale Lady Chaplin è il terzo capitolo della saga con protagonista l'agente segreto 077, nome o meglio cifra scelto/a con grandissima fantasia e personaggio che palesemente

scimmiotta le gesta del ben più celebre James Bond. L'interprete è sempre lui, il moderatamente tenebroso Ken Clark, qui affiancato dalla piacente Daniele Bianchi in una spy story con

telefonatissimo finale rosa; la sceneggiatura di Sandro Continenza, Marcello Coscia e Hipolito De Diego (nel segno della più classica delle coproduzioni italo-spagnole, come spesso avveniva

ai tempi) non brilla per originalità e quantomeno la regia a quattro mani di De Martino e Grieco (già dietro la macchina da presa, da solo, nei due precedenti film della serie di 077) ha il

merito di puntare dritto al sodo senza troppi fronzoli, mettendo in scena in maniera sufficientemente convincente azione, brividi e avventura.

SCREENSHOT

SCREENSHOT


DATI FILE:


General
Complete name : Agente 077 Missione Speciale Lady Chaplin (1966).avi
Format : AVI
Format/Info : Audio Video Interleave
File size : 991 MiB
Duration : 1h 37mn
Overall bit rate : 1 416 Kbps

Video
ID : 0
Format : MPEG-4 Visual
Format settings, BVOP : Yes
Format settings, QPel : No
Format settings, GMC : No warppoints
Format settings, Matrix : Default (H.263)
Muxing mode : Packed bitstream
Codec ID : DX50
Codec ID/Hint : DivX 5
Duration : 1h 37mn
Bit rate : 1 279 Kbps
Width : 704 pixels
Height : 352 pixels
Display aspect ratio : 2.000
Frame rate : 25.000 fps
Color space : YUV
Chroma subsampling : 4:2:0
Bit depth : 8 bits
Scan type : Progressive
Bits/(Pixel*Frame) : 0.206
Stream size : 895 MiB (90%)
Writing library : DivX 5.1.1 (Maupiti) (UTC 2003-11-19)

Audio
ID : 1
Format : MPEG Audio
Format version : Version 1
Format profile : Layer 3
Codec ID : 55
Codec ID/Hint : MP3
Duration : 1h 37mn
Bit rate mode : Constant
Bit rate : 128 Kbps
Channel(s) : 2 channels
Sampling rate : 44.1 KHz
Stream size : 89.5 MiB (9%)
Alignment : Split accross interleaves
Interleave, duration : 40 ms (1.00 video frame)
Interleave, preload duration : 500 ms
Writing library : LAME3.92 AnA÷ˆkÉ




SCREENSHOT

Scrape History ( seeds + peers )

Trackers

Refresh Leechers : Updated March 7, 2016

1. http://tracker.tntvillage.scambioetico.org:2710/announce

2. udp://fr33dom.h33t.com:3310/announce

3. http://tracker2.torrentbox.com:2710/announce

4. http://tracker.torrentbox.com:2710/announce

5. http://tracker1.torrentbox.com:2710/announce

6. http://tracker.podtropolis.com:2711/announce

7. udp://tracker.1337x.org:80/announce

8. udp://tracker.openbittorrent.com:80/announce

9. http://tracker.openbittorrent.com:80/announce

10. udp://tracker.istole.it:80/announce

11. http://9.rarbg.com:2710/announce

12. udp://tracker.btscene.eu:80/announce

Comments

You must log in to add a comment.

Embed Code

Sharing Widget

Top Movies ( auto generated report )

FILENAME SIZE SEEDS PEERS ADDED UPD
[i] X-Men Apocalypse 2016 ENG CAMRip MP4 P2P
Movies - Action , Quality: Audio 5/10 - Video 6/10
981.82 MB 14444 7249 2 days 1 day
[i] Zootopia 2016 1080p HDRip x264 AC3-JYK
Movies - Animation , Quality: Audio 9/10 - Video 9/10
2.73 GB 10078 2990 4 days 4 hours
[i] Gods of Egypt 2016 1080p BluRay x264 DTS-JYK
Movies - Adventure , Quality: Audio 9/10 - Video 9/10
3.2 GB 8831 10192 2 days 1 day
[i] Neighbors 2 Sorority Rising 2016 HD-TS x264 AC3-CPG
Movies - Comedy , Quality: Audio 7/10 - Video 7/10
1.49 GB 7251 5872 2 days 1 day
[i] Zootopia 2016 1080p BluRay x264 DTS-JYK
Movies - Animation , Quality: Audio 9/10 - Video 9/10
2.74 GB 6048 4781 3 days 2 days
[i] Life.on.the.Line.2016.DVDRip.XviD.AC3-EVO
Movies - Action , Quality: Audio 8/10 - Video 8/10
1.41 GB 4776 4641 2 days 1 day
[i] Gods of Egypt (2016) 720p BluRay - x265 HEVC - 800MB - ShAaNiG
Movies - Fantasy , Quality: Audio 8/10 - Video 8/10
802.3 MB 3931 1113 2 days 1 day
[i] Race 2016 FRENCH BDRip XviD-EXTREME 1.36 GB 3306 1067 3 days 2 days
[i] Manhattan.Night.2016.HDRip.XViD-ETRG 714.3 MB 3169 3086 3 days 2 days
[i] Alice.The.Other.Side.of.the.Mirror.2016.BRRip.XviD.AC3-EVO
Movies - Drama , Quality: Audio 8/10 - Video 8/10
1.39 GB 3588 4019 1 day 11 hours