Bit Torrent Scene a public file sharing platform Home Upload Categories Collections Blog About

5.XXX Free Porno Erotika Movies Site Rip-Gold

DOWNLOAD TORRENT DOWNLOAD DOWNLOAD ANONYMOUS

Posted on February 23, 2011 in Misc » Others , downloaded 395 times

Size: 1.47 GB , Seeds: 0 , Peers: 0 ( Updated December 14, 2015 - Refresh )

* Download via Magnet Link , * To download files you need a Bittorrent Client , * How to download torrents from Bit Torrent Scene?

advertising ( remove )

External Info

Trailer | Wikipedia | Other Info

Internal Files

5.XXX Free Porno Erotika Movies Site Rip-Gold
5 XXX Free Porno Erotika Movies DvDrIpp.rar   1.46 GB
Demonoid.nfo   223 Byte
Torrent Downloaded from Demonoid.com.txt   68 Byte
tracked_by_h33t_com.txt   62 Byte

Hash Code

c3f0e241d35e807983b5e51222a6826be747e9cf

Description



*********** **** **** *** ******** *********** **** *** **********
*+* +*+*+* *+*+*+ *+* *+* *+* *+* *+* *+*+* *+* *+*
+*+ +*+ +*+*+ +*+ +*+ +*+ +*+ +*+ *+*+*+ +*+ +*+
+$+ +$+ +*+ +$+ +$++*++$++* *$* +$+ +$+ +*+ +$+ +$++*++$
+$+ +$+ +$+ +$+ +$+ +$+ +$+$ +$+ +$+ +$+$+$ +$+
$+$ $+$ $+$ $+$ $+$ $+$ $+$ $+$ $+$ $+$+$ $+$
$$$$$$$$$$$ $$$ $$$ $$$ $$$ $$$$$$$$ $$$$$$$$$$$ $$$ $$$$ $$$$$$$$$$




Another Fine Release Brought to you from - IMAGiNE


***********************************************************************************
18 Years Old 2011 TS XViD -
***********************************************************************************

Ripper ...........:IMAGiNE
IMDB Rating.......:4.9/10
Video Codec.......:XVID
Release Date......:16/02/11
Audio Codec.......:AC-3
Theatre Date......:14/01/11
Audio Bitrate.....:256 Runtime...........:1h 42mn
Subtitles.........:NIL Language..........:ENGLISH
Resolution........:688 x 384


DETAILS:

Video
ID : 0
Format : MPEG-4 Visual
Format profile : Advanced Simple@L5
Format settings, BVOP : Yes
Format settings, QPel : No
Format settings, GMC : No warppoints
Format settings, Matrix : Default (MPEG)
Muxing mode : Packed bitstream
Codec ID : XVID
Codec ID/Hint : XviD
Duration : 1h 42mn
Bit rate : 1 786 Kbps
Width : 688 pixels
Height : 384 pixels
Display aspect ratio : 16:9
Frame rate : 25.000 fps
Color space : YUV
Chroma subsampling : 4:2:0
Bit depth : 8 bits
Scan type : Progressive
Bits/(Pixel*Frame) : 0.270
Stream size : 1.28 GiB (87%)
Writing library : XviD 61

Audio
ID : 1
Format : AC-3
Format/Info : Audio Coding 3
Mode extension : CM (complete main)
Codec ID : 2000
Duration : 1h 42mn
Bit rate mode : Constant
Bit rate : 256 Kbps
Channel(s) : 2 channels
Channel positions : Front: L R
Sampling rate : 48.0 KHz
Bit depth : 16 bits
Stream size : 188 MiB (12%)
Alignment : Aligned on interleaves
Interleave, duration : 40 ms (1.00 video frame)
Interleave, preload duration : 512 ms







SOURCES:

VIDEO: Jailbait... Thanks
AUDIO: Thanks matey...

NOTES:

IMAGiNE bringing you another release..........The Dilemma 2011

Here we are with a nice encode of this one for you all. Now for the video we just made a script
containing white balance, rgb eq, sharpness, chroma, brightness, contrast ect. Not a great video, but watchable.
The video was missing in 2 spots for about 30-40 seconds each, but nothing is missed really. The audio
we got from a friend thanks bro... With the audio it was just a matter of syncing it to the video.

Enjoy ;)

SCREENS:


GREETS:

FLAWL3SS,ViSiON,FUSiON,Rx,SecretMyth,BirdFlu,ELEKTRI4KA,SERENiTY and Autotron
And to all the other p2p grps past and present


Looking for these,syncers,cammers,silver supplier,Audio.....Have anything to offer????......
Contact us imaginegroup@hushmail.com

Scrape History ( seeds + peers )

Trackers

Refresh Leechers : Updated December 14, 2015

1. http://tracker.thepiratebay.org/announce

2. udp://tracker.thepiratebay.org:80/announce

3. udp://tracker.openbittorrent.com:80/announce

4. udp://tracker.publicbt.com:80/announce

5. http://tracker.publicbt.com/announce

6. http://tracker.publicbt.org/announce

7. http://exodus.desync.com:6969/announce

8. http://bt1.the9.com:6969/announce

9. http://nyaatorrents.info:3277/announce

Comments

You must log in to add a comment.

Embed Code

Sharing Widget

Related torrents

FILENAME SIZE SEEDS PEERS ADDED UPD
[i] Rod-hungry chicks pick up bro gratis hard core free porno 40.56 MB 0 0 2 years 2 months

Top Misc ( auto generated report )

FILENAME SIZE SEEDS PEERS ADDED UPD
[i] Windows Server 2012 System Administration Get an IT Job! 435.32 MB 124 47 1 day 1 day
[i] Howard Stern Show APR 25 2016 Mon (Best Of) 189.32 MB 91 13 3 days 2 days
[i] SEO 2016 in 80 Minutes 129.32 MB 78 23 2 days 1 day
[i] FXPHD - CD4221 Using Arnold in Cinema 4D (Class N. 10) 641.3 MB 74 5 13 hours 11 hours
[i] 36 Sexy Erotic Beautifu Girls with Big Boobs (Mixed) - Set 260 [ECLiPSE] 10.27 MB 68 6 2 days 1 day
[i] Howard Stern Show APR 26 2016 Tue (Best Of) 183.32 MB 67 15 2 days 1 day
[i] Howard Stern Show APR 27 2016 Wed (Best Of) 192.82 MB 67 8 1 day 20 hours
[i] 28 Real Sexy Skinny girls with Big Boobs - Set 266 [ECLiPSE] 3.7 MB 57 12 1 day 20 hours
[i] Linux Installation and Initial Configuration 995.57 MB 54 54 2 days 1 day
[i] The Definitive Guide to T-Shirt Design and Manufacturing 913.82 MB 54 36 2 days 1 day